#TITLE:Ub3R R4vE;
#SUBTITLE:;
#ARTIST:Rage;
#TITLETRANSLIT:;
#SUBTITLETRANSLIT:;
#ARTISTTRANSLIT:;
#CREDIT:;
#BANNER:uberrave-bn.png;
#BACKGROUND:uberrave-bg.png;
#LYRICSPATH:;
#CDTITLE:cooltext42658261.gif;
#MUSIC:UBER RAVE.mp3;
#OFFSET:-0.040;
#SAMPLESTART:90.460;
#SAMPLELENGTH:12.000;
#SELECTABLE:YES;
#BPMS:0.000=175.000;
#STOPS:;
#BGCHANGES:;
// cache tags:
#FIRSTBEAT:0.000;
#LASTBEAT:385.500;
#SONGFILENAME:Songs/Music V.I.P ^_^/Uber Rave/uberrave.sm;
#HASMUSIC:1;
#HASBANNER:1;
#MUSICLENGTH:133.075;
// end cache tags

//---------------dance-single - Blank----------------
#NOTES:
     dance-single:
     Blank:
     Challenge:
     12:
     1.000,1.000,0.368,0.391,1.000,885.000,49.000,52.000,0.000,20.000:

2100
0000
0100
0000
3020
0000
0100
0100
,
0100
0030
1002
0010
0000
0000
1000
0100
,
0023
0000
0000
0000
2030
0000
0000
0000
0000
0000
0000
0000
3000
0000
1000
0010
,
0100
0001
0100
0010
1000
0001
0100
0001
0000
0100
0010
0001
0010
0100
1000
0010
,
2100
0000
0100
0000
0000
0000
3120
1000
,
0100
0000
1230
1000
0000
0000
1320
0100
,
1230
0000
0000
0000
,
0300
1000
0010
1000
0000
0010
0100
1000
0001
0100
0010
0000
1100
0001
0100
0010
,
1000
0100
0110
0001
0001
0100
1010
0010
,
0001
0010
0110
1000
0001
0010
1100
1000
,
0100
0100
0011
0100
1000
0010
0101
0001
,
0010
0010
0101
0001
0010
1000
0101
0010
,
0010
0100
0110
0001
0010
0010
1001
0010
,
0001
0001
1010
0100
0001
0010
1100
0001
,
0010
1000
0100
0001
0010
1000
0001
0100
0001
0100
0010
1000
0001
0100
0000
1000
,
0001
0100
0001
0100
0010
1000
0010
0100
0001
0100
0010
1000
0001
0110
0000
1100
,
0000
0220
0000
0000
0001
0000
0000
0000
0000
0000
0330
0000
1200
0000
0010
0000
,
0001
0000
0010
1000
0000
2300
0020
0032
,
0023
0000
0000
0000
0030
0200
0000
0000
0000
0000
0000
0000
0000
0000
0301
3010
,
0001
0110
0001
0100
0010
1000
0001
1000
0100
1000
0010
0000
0100
0001
0100
0010
,
2100
0000
0100
0000
0000
0000
3200
0320
,
0032
0000
0000
0023
0230
0000
2000
3020
,
2330
0000
0000
0000
,
3000
0010
0100
0001
0100
0010
1000
0001
0100
0010
1000
0100
0010
0100
1000
0001
,
1000
0100
1000
0100
0010
0001
0010
0001
0100
0010
0100
0010
,
1000
0001
1000
0001
0100
0010
1000
0001
0000
0100
0010
1000
,
0001
1000
0100
0010
1000
0001
0100
0010
0001
1000
0001
0100
,
0010
1000
0010
0100
1000
0010
0100
0001
0100
0010
1000
0010
,
0100
0001
0100
0010
0001
0010
1000
0100
0001
0100
0010
1000
,
0010
0100
0001
0100
0010
1000
0100
0010
0100
1000
0001
0100
,
0010
1000
0010
0100
0001
0100
0010
1000
0001
0100
0010
1000
,
0001
0100
1000
0001
0100
0010
1000
0100
1000
0010
1000
0100
,
0100
1100
0020
0000
0000
0000
1030
0010
,
0200
0000
0310
0002
0000
0000
0013
1000
,
0010
0002
0200
0003
0000
0000
0000
0000
,
1300
0001
0100
0010
1000
0010
0100
0001
0100
0010
1000
0010
0100
0001
0100
0010
,
1200
0320
0000
0000
0000
0130
1000
0002
,
0000
0023
0230
0000
0000
0301
0100
0010
,
0200
0000
0000
0000
,
1300
0001
0100
0010
1000
0100
1000
0100
0000
0001
0100
0010
0100
1000
0010
0001
,
1000
0100
1000
0100
1000
0100
1000
0100
1000
0100
1000
0100
1000
0100
1000
0000
,
0010
0001
0010
0001
0010
0001
0010
0001
0010
0001
0010
0001
0010
0001
0010
0000
,
1000
0100
1000
0100
1000
0100
1000
0100
1000
0100
1000
0100
1000
0100
1000
0000
,
0100
0010
0100
0010
0100
0010
0100
0010
0100
0010
0100
0010
0100
0010
0100
0010
,
2001
0001
0001
0001
,
3201
0010
0010
0010
,
2310
0100
0100
0100
,
3102
1000
1000
0000
1000
1000
0000
1000
1000
1000
1000
1000
,
1003
0000
0000
0010
0000
0000
0100
0000
0000
0001
0000
0000
1000
0000
0000
0001
0000
0000
0000
0000
0000
0010
0000
0000
1000
0000
0000
0100
0000
0000
1000
0000
0000
0010
0000
0000
0000
0000
0000
0100
0000
0000
1000
0000
0100
0001
0010
0000
,
0100
0000
0001
0010
1000
0000
0100
0000
0000
1000
0000
0000
0010
0000
0000
0100
0000
0000
1000
0000
0001
0010
1000
0000
0100
0000
0010
0001
1000
0000
0100
0000
1000
0010
0100
0000
0001
0000
0100
0010
0000
0000
0001
0000
0000
0010
0000
0000
,
0100
0000
0000
0001
0000
0000
0100
0000
0000
1000
0000
0000
0001
0000
0000
0100
0000
0000
0010
0000
0000
0001
0000
0000
0100
0000
0000
0001
0000
0000
1000
0000
0000
0010
0000
0000
0100
0000
0000
0001
0100
0000
1000
0000
0001
0010
0000
0000
,
0100
0000
0010
1000
0100
0000
0001
0000
0000
0100
0000
0000
0010
0000
0000
1000
0000
0000
0010
0000
0100
1000
0010
0000
0100
0000
0010
1000
0000
0000
0001
0000
0000
0100
0000
0000
0010
0000
0000
1000
0000
0000
0001
0000
0000
0100
0000
0000
,
0010
0000
0000
0000
0000
0000
0000
0000
0000
0000
0000
0000
0000
0000
0000
0000
0000
0000
0010
0001
0010
0001
0010
0000
,
0000
0100
1000
0100
1000
0100
0000
0001
0010
0001
0010
0000
0000
0100
1000
0100
1000
0000
0001
0010
0001
0010
0000
0000
,
0000
0000
0000
0000
0000
0000
0000
0000
0000
0000
0000
0000
0000
0000
0000
0000
0000
0000
1000
0010
0100
0001
0010
0000
,
0000
0100
0001
1000
0010
0100
0000
0000
0000
1000
0001
0100
1000
0000
0000
0010
0100
1000
0000
0000
0000
0000
0000
0000
,
2100
0010
0001
0010
,
3120
1000
0001
0100
,
1230
0010
1000
0001
,
0312
1000
0010
0100
,
1023
0100
1000
0001
,
2130
0001
0100
0010
,
3102
1000
0010
0100
,
1023
0100
0001
0000
,
0030
1000
0010
0100
0001
0010
0100
1000
0001
0100
0010
1000
,
0001
0100
0010
1000
0001
0100
0010
1000
0001
0100
0010
1000
,
0001
0100
0010
1000
0100
0100
1000
0010
0001
0100
0010
0100
,
1000
0100
0001
0010
1000
0010
0100
0001
1000
0100
0010
0001
,
0100
1000
0001
0010
0100
1000
0001
0100
0010
1000
0001
0100
,
0010
0100
1000
0001
0010
0010
1000
0010
0100
0001
0010
1000
,
0010
0100
0001
0010
0100
1000
0001
0100
0010
1000
0001
0100
,
0010
0100
1000
0010
0001
1000
0010
0100
0001
0010
0100
1000
,
0010
0100
0001
1000
0010
0100
0001
0100
0010
1000
0010
1000
,
0100
0010
0100
0001
0010
0100
1000
0100
0010
0100
0001
1000
,
0010
0100
0001
0100
0010
1000
0001
0100
0010
1000
0001
0100
,
0010
1000
0010
0100
0001
0100
0010
1000
0001
0100
0010
1000
,
0010
0100
0001
0010
0100
1000
0001
0100
0010
1000
0001
0100
,
0010
0100
1000
0001
0100
0010
1000
0001
0100
0010
0100
1000
,
0001
0100
0010
1000
0001
0100
0010
0100
1000
0001
0100
0010
,
1000
0000
0010
0000
0100
0000
0001
0000
0100
0000
0010
0000
1000
0001
0100
0010
1000
0001
0100
0010
1000
0001
0100
0010
,
0000
0110
0000
0001
0001
0110
0000
0100
,
0100
1010
0000
0010
0010
0101
0000
0100
,
0100
1010
0000
0100
0100
1100
0000
0010
,
0001
0110
0000
1000
0010
0101
0000
0010
,
1000
0100
1000
0100
1000
0100
1000
0100
,
1000
0010
0001
0010
0001
0010
0001
0010
,
0001
0010
0100
0001
0010
0100
0001
0010
,
0100
0001
0100
0001
0100
0001
0100
0001
,
0100
1000
0010
0100
0001
0100
1000
0010
,
0100
0001
0010
0100
0001
0010
0001
0100
,
0010
1000
0001
0100
0010
0001
0010
0100
,
0001
1000
0100
1000
0010
1000
0010
0100
,
0001
1000
0010
0100
0001
0010
0001
1000
,
0100
0001
0010
1000
0010
0100
0001
0100
,
0010
1000
0100
0010
0100
0001
0100
0010
,
1000
0010
0100
0001
0010
0001
0100
0001
,
2002
0000
0000
3003
0000
0000
0000
0000
;
